Submit Hint Search The Forums LinksStatsPollsHeadlinesRSS
14,000 hints and counting!


Click here to return to the 'Doesn't work for me' hint
The following comments are owned by whoever posted them. This site is not responsible for what they say.
Doesn't work for me
Authored by: Skeeve on Nov 14, '06 04:46:46AM
I've downloaded a this file: http://www.chumba.com/media/stream/SongForDerekJarman.rm

and followed the instructions given. But all I get is a 0byte mp3 file and this messages:
Encoding started on Tue Nov 14 13:47:11 CET 2006
FFmpeg version CVS, Copyright (c) 2000-2004 Fabrice Bellard
Mac OSX universal build for ffmpegX
libavutil version: 49.0.0
libavcodec version: 51.9.0
libavformat version: 50.4.0
[NULL @ 0x45a630]Unsupported video codec
[NULL @ 0x45a630]Unsupported video codec
Input #0, rm, from '/Users/me/Desktop/New_Music/Chumbawamba/some_B-Sides/SongForDerekJarman.rm.wav':
Duration: 00:05:48.9, start: 0.000000, bitrate: 212 kb/s
Stream #0.0: Data: 0x0000
Stream #0.1: Data: 0x0000, 64 kb/s
Stream #0.2: Audio: cook, 44100 Hz, mono, 32 kb/s
Stream #0.3: Audio: cook, 44100 Hz, mono, 20 kb/s
Stream #0.4: Audio: cook, 22050 Hz, mono, 16 kb/s
Stream #0.5: Audio: cook, 44100 Hz, mono, 64 kb/s
Stream #0.6: Audio: cook, 44100 Hz, mono, 44 kb/s
Stream #0.7: Audio: cook, 44100 Hz, mono, 32 kb/s
Stream #0.8: Audio: cook, 44100 Hz, mono, 32 kb/s
Codec type mismatch for mapping #0.0 -> #0.0



[ Reply to This | # ]